1. Cookies optimieren die Bereitstellung unserer Dienste. Mit der Nutzung unserer Dienste erklärst Du dich damit einverstanden, dass wir Cookies verwenden. Weitere Informationen
    Information ausblenden
  2. Willkommen im Forum von DIGITAL FERNSEHEN - dem führenden Portal für digitales Fernsehen, Medien und Entertainment. Wenn du hier neu bist, schau dich ruhig etwas um und melde dich an, um am Forengeschehen teilnehmen zu können.
    Information ausblenden

UHD über HbbTV

Dieses Thema im Forum "HDTV - Die Zeitschrift" wurde erstellt von Scholli, 7. April 2021.

  1. EinNutzer

    EinNutzer Silber Member

    Registriert seit:
    22. September 2019
    Beiträge:
    854
    Zustimmungen:
    295
    Punkte für Erfolge:
    73
    Anzeige
    Damit die ARD es wie die Olympischen Spiele oder Fußball-EM und -WM dann genauso nicht in UHDTV zeigt? o_O

    Es würde ja ziemlichen Druck aufbauen, wenn die EBU auf UHDTV umsteigen und ARD und ZDF dem nicht folgen würden, so als Mitglieder der EBU …

    Und dann noch ein Deutschland als Hauptgeldgeber ("Big Five"), der es nicht in bester Auflösung zeigt. Die Welt würde sich kaputt lachen. Es ist sicher besser ohne UHD-Bild. :cry:

    Bezüglich dem UHD von @Scholli habe ich in einem Forum folgende offenbar offizielle Bestätigung gefunden, dass es auch in Zukunft kein lineares UHDTV geben wird:
     
    ms2k und Scholli gefällt das.
  2. EinNutzer

    EinNutzer Silber Member

    Registriert seit:
    22. September 2019
    Beiträge:
    854
    Zustimmungen:
    295
    Punkte für Erfolge:
    73
    Bezüglich der Links zu den UHD-/HDR-Inhalten meinte ich Internetverweise, die man zum Herunterladen der Videos verwenden kann.

    Ich fange mal an mit einigen Pfaden, die ich kenne bzw. durch Probieren herausgefunden habe:

    Der Bergdoktor 12x01 (Preis des Lebens).mp4
    Code:
    https://tvdl.zdf.de/none/zdf/diverse/190103_2015_sendung_uhd_dbd.mp4
    Der Bergdoktor 12x02 (Ein neuer Anfang).mp4
    Code:
    https://tvdl.zdf.de/none/zdf/diverse/190110_2015_sendung_uhd_dbd.mp4
    Der Bergdoktor 12x03 (Die Andere ).mp4
    Code:
    https://tvdl.zdf.de/none/zdf/diverse/190117_2015_sendung_uhd_dbd.mp4
    Der Bergdoktor 12x04 (Schmerz).mp4
    Code:
    https://tvdl.zdf.de/none/zdf/diverse/190124_2015_sendung_uhd_dbd.mp4
    Der Bergdoktor 12x05 (Dissonanzen).mp4
    Code:
    https://tvdl.zdf.de/none/zdf/diverse/190131_2015_sendung_uhd_dbd.mp4
    Der Bergdoktor 12x06 (Ein ganzes Leben).mp4
    Code:
    https://tvdl.zdf.de/none/zdf/diverse/190207_2015_sendung_uhd_dbd.mp4
    Der Bergdoktor 12x07 (Zeit der Wölfe).mp4
    Code:
    https://tvdl.zdf.de/none/zdf/diverse/190214_2015_sendung_uhd_dbd.mp4
    Der Bergdoktor 12x08 (Zeitenwende).mp4
    Code:
    https://tvdl.zdf.de/none/zdf/diverse/190221_2015_sendung_uhd_dbd.mp4
     
    ms2k, HD-Freak und Scholli gefällt das.
  3. EinNutzer

    EinNutzer Silber Member

    Registriert seit:
    22. September 2019
    Beiträge:
    854
    Zustimmungen:
    295
    Punkte für Erfolge:
    73
    Das Traumschiff - Folge 89 (Seychellen).mp4
    Code:
    https://tvdl.zdf.de/none/zdf/diverse/210101_2015_sendung_trs.mp4
    Folgendes funktioniert dagegen nicht:

    Das Traumschiff - Folge 90 (Malediven und Thaa-Atoll).mp4
    Code:
    https://tvdl.zdf.de/none/zdf/diverse/210404_2015_sendung_trs.mp4
     
    ms2k und HD-Freak gefällt das.
  4. Scholli

    Scholli Wasserfall

    Registriert seit:
    25. Oktober 2001
    Beiträge:
    8.350
    Zustimmungen:
    354
    Punkte für Erfolge:
    98
    Technisches Equipment:
    Vu+Solo 4k
    "Internetverweise, die man zum Herunterladen verwenden kann" ??? Das verstehe ich nicht. Wie ??
     
  5. Scholli

    Scholli Wasserfall

    Registriert seit:
    25. Oktober 2001
    Beiträge:
    8.350
    Zustimmungen:
    354
    Punkte für Erfolge:
    98
    Technisches Equipment:
    Vu+Solo 4k
    Zuletzt bearbeitet: 8. April 2021
  6. EinNutzer

    EinNutzer Silber Member

    Registriert seit:
    22. September 2019
    Beiträge:
    854
    Zustimmungen:
    295
    Punkte für Erfolge:
    73
    Mit diesem Link funktioniert es jetzt auch bei mir. (y)

    Technisch gesehen ist es UHD …
    Code:
    General
    Complete name                            : Das Traumschiff - Folge 90 (Malediven und Thaa-Atoll).mp4
    Format                                   : MPEG-4
    Format profile                           : Base Media / Version 2
    Codec ID                                 : mp42 (isom/mp42)
    File size                                : 2.74 GiB
    Duration                                 : 1 h 30 min
    Overall bit rate                         : 4 335 kb/s
    Encoded date                             : UTC 2021-03-18 08:20:46
    Tagged date                              : UTC 2021-03-18 08:20:46
    
    Video
    ID                                       : 1
    Format                                   : HEVC
    Format/Info                              : High Efficiency Video Coding
    Format profile                           : Main 10@L5.1@Main
    Codec ID                                 : hvc1
    Codec ID/Info                            : High Efficiency Video Coding
    Duration                                 : 1 h 30 min
    Bit rate                                 : 4 197 kb/s
    Width                                    : 3 840 pixels
    Height                                   : 2 160 pixels
    Display aspect ratio                     : 16:9
    Frame rate mode                          : Constant
    Frame rate                               : 50.000 FPS
    Color space                              : YUV
    Chroma subsampling                       : 4:2:0
    Bit depth                                : 10 bits
    Bits/(Pixel*Frame)                       : 0.010
    Stream size                              : 2.65 GiB (97%)
    Writing library                          : x265 3.3+1-f94b0d32737d:[Linux][GCC 9.2.1][64 bit] 10bit
    Encoding settings                        : cpuid=1111039 / frame-threads=1 / wpp / no-pmode / no-pme / no-psnr / no-ssim / log-level=2 / input-csp=1 / input-res=3840x2160 / interlace=0 / total-frames=0 / level-idc=0 / high-tier=1 / uhd-bd=0 / ref=5 / no-allow-non-conformance / no-repeat-headers / annexb / no-aud / no-hrd / info / hash=0 / no-temporal-layers / no-open-gop / min-keyint=100 / keyint=100 / gop-lookahead=0 / bframes=4 / b-adapt=2 / b-pyramid / bframe-bias=0 / rc-lookahead=40 / lookahead-slices=1 / scenecut=0 / hist-scenecut=0 / radl=0 / no-splice / no-intra-refresh / ctu=64 / min-cu-size=8 / rect / amp / max-tu-size=32 / tu-inter-depth=3 / tu-intra-depth=3 / limit-tu=4 / rdoq-level=2 / dynamic-rd=0.00 / no-ssim-rd / signhide / no-tskip / nr-intra=0 / nr-inter=0 / no-constrained-intra / strong-intra-smoothing / max-merge=4 / limit-refs=1 / limit-modes / me=3 / subme=4 / merange=57 / temporal-mvp / no-frame-dup / no-hme / weightp / weightb / no-analyze-src-pics / deblock=0:0 / sao / no-sao-non-deblock / rd=3 / selective-sao=4 / no-early-skip / no-rskip / no-fast-intra / no-tskip-fast / no-cu-lossless / b-intra / no-splitrd-skip / rdpenalty=0 / psy-rd=2.00 / psy-rdoq=0.00 / no-rd-refine / no-lossless / cbqpoffs=0 / crqpoffs=0 / rc=abr / bitrate=4200 / qcomp=0.60 / qpstep=4 / stats-write=0 / stats-read=0 / ipratio=1.40 / pbratio=1.30 / aq-mode=1 / aq-strength=1.00 / cutree / zone-count=0 / no-strict-cbr / qg-size=32 / no-rc-grain / qpmax=69 / qpmin=0 / no-const-vbv / sar=1 / overscan=0 / videoformat=5 / range=0 / colorprim=9 / transfer=18 / colormatrix=9 / chromaloc=0 / display-window=0 / cll=0,0 / min-luma=0 / max-luma=1023 / log2-max-poc-lsb=8 / vui-timing-info / vui-hrd-info / slices=1 / no-opt-qp-pps / no-opt-ref-list-length-pps / no-multi-pass-opt-rps / scenecut-bias=0.05 / hist-threshold=0.01 / no-opt-cu-delta-qp / no-aq-motion / no-hdr10 / no-hdr10-opt / no-dhdr10-opt / no-idr-recovery-sei / analysis-reuse-level=0 / analysis-save-reuse-level=0 / analysis-load-reuse-level=0 / scale-factor=0 / refine-intra=0 / refine-inter=0 / refine-mv=1 / refine-ctu-distortion=0 / no-limit-sao / ctu-info=0 / no-lowpass-dct / refine-analysis-type=0 / copy-pic=1 / max-ausize-factor=1.0 / no-dynamic-refine / no-single-sei / no-hevc-aq / no-svt / no-field / qp-adaptation-range=1.00 / no-scenecut-aware-qpconformance-window-offsets / right=0 / bottom=0
    Language                                 : German
    Encoded date                             : UTC 2021-03-18 08:20:46
    Tagged date                              : UTC 2021-03-18 08:20:53
    Color range                              : Limited
    Color primaries                          : BT.2020
    Transfer characteristics                 : HLG
    Matrix coefficients                      : BT.2020 non-constant
    Codec configuration box                  : hvcC
    
    Audio
    ID                                       : 2
    Format                                   : AAC LC
    Format/Info                              : Advanced Audio Codec Low Complexity
    Codec ID                                 : mp4a-40-2
    Duration                                 : 1 h 30 min
    Bit rate mode                            : Constant
    Bit rate                                 : 128 kb/s
    Channel(s)                               : 2 channels
    Channel layout                           : L R
    Sampling rate                            : 48.0 kHz
    Frame rate                               : 46.875 FPS (1024 SPF)
    Compression mode                         : Lossy
    Stream size                              : 82.8 MiB (3%)
    Language                                 : German
    Encoded date                             : UTC 2021-03-18 08:20:46
    Tagged date                              : UTC 2021-03-18 08:20:53
    … im Ergebnis ist es wohl ein ziemlich schwaches UltraHD-Bild. Die Videodatenrate liegt bei 4.197 kBit/s. :eek:

    Vom Ton lohnt sich gar nicht zu sprechen.

    Wenn man bedenkt, dass es keine andere Möglichkeit gibt, an diesen UHD-Content zu kommen, und es angeblich Tests sein sollen (siehe Aussage des MDR-Mitarbeiters), fahren sie ihre Tests ganz schön minimalistisch!

    Wegen solcher Willkür bei der Namensgebung der Dateien ist es gar nicht so einfach, die UHD- oder HDR-Videos zu finden, wenn man keinen kompatiblen HbbTV-Fernseher hat. :(
     
    Zuletzt bearbeitet: 8. April 2021
    Scholli gefällt das.
  7. Spiritman

    Spiritman Silber Member

    Registriert seit:
    10. Juli 2008
    Beiträge:
    698
    Zustimmungen:
    207
    Punkte für Erfolge:
    53
    es wird gar nichts in UHD via DVB-S2 zu sehen sein. Deutschland ist und bleibt ein Museum bei so einem riesigen Rundfunkapparat.
    EM und WM laufen via IPTV bei Magenta TV in UHD. Die olympischen Spiele kommen bei Discovery und Eurosport via Fire TV Stick 4K in UHD als Stream.
    Der Trend ist also klar erkennbar....
     
    EinNutzer gefällt das.
  8. HD-Freak

    HD-Freak Silber Member

    Registriert seit:
    29. September 2007
    Beiträge:
    646
    Zustimmungen:
    340
    Punkte für Erfolge:
    73
    Hallo EinNutzer, herzlichen Dank für Deine Links! Toll!

    Zwar bin ich kein Freund dieser Herz-Schmerz-Filmreihe, aber erstmals funktioniert - im Gegensatz zu HbbTV beim ZDF - nach diesen Downloads bei meinem LG OLED auch HDR. Bei HbbTV bekomme ich kein HDR und nur ein farbverfälschtes Bild, da mein LG da nicht in den HDR-Modus umschaltet.

    Nun aber - dank Deiner Links - ist das anders.
    Und ich muss sagen, das ZDF 4K HDR-Bild sieht ja richtig gut aus! Von der relativ geringen Datenrate habe ich mich zuvor gar nicht beeindrucken lassen, da diese ZDF-Reihe nun wahrlich nicht der Kategorie Action-Film zuzurechnen ist. ;) Man hat da also eh viele ruhige und stehende 4K-Bilder. Gut, bei seltenen schnellen Kameraschwenks merkt man es schon.
    Aber, ansonsten: Kräftige, natürliche Farben dank BT.2020 und HDR/HLG und kaum! sichtbare Kompressionsartefakte.

    Also, ich kann mich über diese 4K-Downloads nicht beklagen.
    Offen gestanden hatte ich zuvor in puncto 4K-Bildqualität weniger erwartet.

    Nochmals danke für Deine Links!

    Grüße aus Halle (Saale)
    vom HD-Freak :)
     
    Zuletzt bearbeitet: 8. April 2021
    EinNutzer gefällt das.
  9. Hagast

    Hagast Senior Member

    Registriert seit:
    13. März 2015
    Beiträge:
    416
    Zustimmungen:
    91
    Punkte für Erfolge:
    38
    Über HbbTV ist das ZDF 4K HDR-Bild bei mir auch farbverfälscht. Bei HbbTV wird HDR-HLG verwendet, beim Streaming (Prime Video) bei mir aber HDR-HDR10. Da habe ich keine Farb-Helligkeitsfehler. Der Test-Download vom Traumschiff, hat bei mir auch Farb-Helligkeitsfehler, erst wenn ich HDR am TV deaktiviere wird es besser.
     
    Zuletzt bearbeitet: 9. April 2021
  10. liebe_jung

    liebe_jung Foren-Gott

    Registriert seit:
    21. Mai 2008
    Beiträge:
    12.205
    Zustimmungen:
    2.669
    Punkte für Erfolge:
    213
    Wo ist denn von einem "Test" die Rede?


    Links zu UHD Inhalten der Mediatheken gibt es auch noch in den entsprechenden Threads, meist zu den News Meldungen vom Bergdoktor, Traumschiff, Kripo Live (Otto Prokop), usw.