1. Cookies optimieren die Bereitstellung unserer Dienste. Mit der Nutzung unserer Dienste erklärst Du dich damit einverstanden, dass wir Cookies verwenden. Weitere Informationen
    Information ausblenden
  2. Willkommen im Forum von DIGITAL FERNSEHEN - dem führenden Portal für digitales Fernsehen, Medien und Entertainment. Wenn du hier neu bist, schau dich ruhig etwas um und melde dich an, um am Forengeschehen teilnehmen zu können.
    Information ausblenden

Magenta (ex. UPC) Austria

Dieses Thema im Forum "Digital TV über Kabel (DVB-C)" wurde erstellt von macci1, 2. Juli 2012.

  1. grunz

    grunz Gold Member

    Registriert seit:
    6. Oktober 2006
    Beiträge:
    1.804
    Zustimmungen:
    27
    Punkte für Erfolge:
    58
    Anzeige
    dazu hab ich keine informationen da nicht mitarbeiter von magenta :) die kennung des senders ist zur zeit TS40.1 mehr als wetterpanorama läuft dort aber nicht. Magenta wird eingeblendet
     
  2. Franz Brazda

    Franz Brazda Silber Member

    Registriert seit:
    18. September 2008
    Beiträge:
    965
    Zustimmungen:
    75
    Punkte für Erfolge:
    38
    Als Ton läuft hier Life Radio Tirol !
     
    grunz gefällt das.
  3. Schwurbel

    Schwurbel Junior Member

    Registriert seit:
    10. Mai 2016
    Beiträge:
    77
    Zustimmungen:
    13
    Punkte für Erfolge:
    18
    Ich weiß nicht, ob die Schuld bei Magenta oder bei RTL (Nitro) lag, aber heute vormittag haben sie über zwei Stunden lang Nitro SD mit im Durchschnitt unter 1Mbit Videobitrate gesendet:
    https://i.imgur.com/R8W1l8q.png
    Die 5Mbit vorher und nachher sind irreführend, normalerweise dümpelt die Bitrate bei 2-3Mbit/ herum.

    Hoffentlich nur ein einmaliger Ausrutscher, und kein "Testlauf" für etwaige Schandtaten:
    https://i.imgur.com/DWMwsmi.png

    PS: Wenn überhaupt, und falls Magenta die Sender wirklich nach AVC konvertiert, dann könnten sie die Bitrate ruhig etwas erhöhen. Gibt oft genug fast fehlerhafte Klötzchenbildung wegen zu wenig Bitrate für den Encoder.
     
  4. xyladecor

    xyladecor Platin Member

    Registriert seit:
    13. Dezember 2003
    Beiträge:
    2.764
    Zustimmungen:
    198
    Punkte für Erfolge:
    73
    Technisches Equipment:
    AX Triplex SST2- Dreambox 8000 SSST - Dreambox 800 C - Dreambox 720 HD SSC - Dreambox 525 SC - Hirschmann 120, Gibertini 100, Fuba 100, Conradspiegel 60 - 9°/13°/19,2°/28,2°/30°W - Sky, SRF, nc+, UPC Plus
    Und jetzt könnte UPC / Magenta eigentlich die Schweizer wie gewohnt einspeisen, werden sie aber wohl genauso wie z.B. simplitv nicht tun :-(

    Ich werde des denen mal kundtun, umso mehr denen dort damit auf die Nerven gehen, umso eher tut sich vlt. was, auch wenn die Chancen extrem gering sind, besonders seit dem der Laden von rosa Riesen übernommen wurde.

     
  5. misteranonymus

    misteranonymus Talk-König

    Registriert seit:
    28. Juni 2012
    Beiträge:
    6.517
    Zustimmungen:
    2.174
    Punkte für Erfolge:
    163
    Technisches Equipment:
    simpliTV Antenne Plus Smart Card und Plustelka SK Smart Card in einem VU+ Duo2 Receiver VTI14.0.5, Zattoo CH und DE auf VU+ Duo2, simpliTV Smart Card in einem SamsungTV F-Series, AppleTV3, FireTV Box 2. Gen, FireTV Box 3. Gen, Xiaomi Mi Box AndroidTV, KODI auf mehreren Plattformen
    UPC bzw Magenta Vorarlberg hatte die eh und auch nicht abgeschalten.

    Ich glaub ja das diese DVB-T Sender Neuaufschaltung ja nur deswegen passiert ist um dem einen legalen Anstrich zu geben.
    Noch nicht lange her da würde UPC Vorarlberg von UPC Cablecom aus der Schweiz versorgt und man vergisst halt auf die Vorarlberger in der Schweiz nicht obwohl eine Eingliederung in die Schweiz vom Parlament endgültig abgelehnt wurde.

    LIWEST ist halt mit aufgesprungen und das war es bei den großen Kabelanbietern in AT
     
    DVB-X gefällt das.
  6. DVB-X

    DVB-X Silber Member

    Registriert seit:
    10. Februar 2013
    Beiträge:
    827
    Zustimmungen:
    162
    Punkte für Erfolge:
    53
    Das vermute ich auch. Seit Juli sendet man nach der Overspill-Regelung, obwohl die Aufschaltung meines Wissens bis heute noch nicht erfolgt ist. Bis jetzt wurde nur beantragt, genehmigt und wahrscheinlich auch dafür bezahlt.

    Prinzipiell gibt es auch zwei unterschiedliche rechtliche Situationen:

    1) Für Vorarlberg gilt wohl großteils die Overspill-Regelung. d.h. Die SRG muss der Einspeisung nicht zustimmen und kann auch kein Schwarzbild für Programmteile verlangen.
    2) Für die restlichen Gebiete in Österreich muss die SRG zustimmen und kann Bedingungen wie Schwarzbild für Programmteile festlegen.
     
    xyladecor gefällt das.
  7. Franz Brazda

    Franz Brazda Silber Member

    Registriert seit:
    18. September 2008
    Beiträge:
    965
    Zustimmungen:
    75
    Punkte für Erfolge:
    38
    Der "Auto, Motor und Sport Channel UHD" auf Kanal S 17=274 MHz wurde bei Magenta TV in Wien als erster UHD/4K Sender unverschlüsselt aufgeschaltet.
    Da die UPC-Boxen das UHD Signal nicht empfangen können, ist der Empfang nur direkt mittels einen UHD tauglichen Gerätes zu empfangen.
     
  8. Schwurbel

    Schwurbel Junior Member

    Registriert seit:
    10. Mai 2016
    Beiträge:
    77
    Zustimmungen:
    13
    Punkte für Erfolge:
    18
    Ca. 18,5Mbit/s, net schlecht.

    Mediainfo von einer Testaufnahme:
    Code:
    General
    ID                                       : 7 (0x7)
    Complete name                            : K:\2019-12-04_15-41-58_Auto Motor und Sport Channel UHD_Marco Polo TV.ts
    Format                                   : MPEG-TS
    File size                                : 137 MiB
    Duration                                 : 1 min 1 s
    Overall bit rate mode                    : Variable
    Overall bit rate                         : 18.7 Mb/s
    
    Video
    ID                                       : 2001 (0x7D1)
    Menu ID                                  : 7001 (0x1B59)
    Format                                   : HEVC
    Format/Info                              : High Efficiency Video Coding
    Format profile                           : Main 10@L5.1@Main
    Codec ID                                 : 36
    Duration                                 : 16 h 21 min
    Bit rate                                 : 17.6 Mb/s
    Width                                    : 3 840 pixels
    Height                                   : 2 160 pixels
    Display aspect ratio                     : 16:9
    Frame rate                               : 50.000 FPS
    Color space                              : YUV
    Chroma subsampling                       : 4:2:0
    Bit depth                                : 10 bits
    Bits/(Pixel*Frame)                       : 0.042
    Stream size                              : 120 GiB
    Color range                              : Limited
    Color primaries                          : BT.709
    Transfer characteristics                 : BT.709
    Matrix coefficients                      : BT.709
    
    Audio
    ID                                       : 2041 (0x7F9)
    Menu ID                                  : 7001 (0x1B59)
    Format                                   : E-AC-3
    Format/Info                              : Enhanced Audio Coding 3
    Format settings, Endianness              : Big
    Codec ID                                 : 6
    Duration                                 : 1 min 1 s
    Bit rate mode                            : Constant
    Bit rate                                 : 224 kb/s
    Channel(s)                               : 2 channels
    Channel positions                        : Front: L R
    Sampling rate                            : 48.0 kHz
    Frame rate                               : 187.500 FPS (256 SPF)
    Compression mode                         : Lossy
    Delay relative to video                  : -1 s 464 ms
    Stream size                              : 1.64 MiB (1%)
    Language                                 : German
    Service kind                             : Complete Main
    
    Menu
    ID                                       : 2000 (0x7D0)
    Menu ID                                  : 7001 (0x1B59)
    Duration                                 : 1 min 1 s
    List                                     : 2001 (0x7D1) (HEVC) / 2041 (0x7F9) (E-AC-3, German)
    Language                                 :  / German
    UTC 2019-12-04 14:25:00                  : de:Marco Polo TV / de: / tourism/travel /  / 00:30:00 / Running
    UTC 2019-12-04 14:55:00                  : de:Fast Lap / de: / motoring /  / 00:25:00 / Not running
     
  9. Franz Brazda

    Franz Brazda Silber Member

    Registriert seit:
    18. September 2008
    Beiträge:
    965
    Zustimmungen:
    75
    Punkte für Erfolge:
    38
    Radio-Kennung: "Radio Austria" wurde heute von Radio Ö24 korrigiert.
    Fehlt noch "Deutschlandfunk Kultur" anstatt Deutschland Radio Kultur, "Bremen 2" anstatt Nordwestradio,
    "Radio Klassik Stephansdom" anstatt Radio Stephansdom und "ORF 1" anstatt ORF eins !