1. Cookies optimieren die Bereitstellung unserer Dienste. Mit der Nutzung unserer Dienste erklärst Du dich damit einverstanden, dass wir Cookies verwenden. Weitere Informationen
    Information ausblenden
  2. Willkommen im Forum von DIGITAL FERNSEHEN - dem führenden Portal für digitales Fernsehen, Medien und Entertainment. Wenn du hier neu bist, schau dich ruhig etwas um und melde dich an, um am Forengeschehen teilnehmen zu können.
    Information ausblenden

"Karl Storz 3D"-TECHNIK LIVE 3D-L/R OPERATION CHIR.SPANDAU HDTV/3D

Dieses Thema im Forum "Feedmeldungen" wurde erstellt von ersin69, 27. April 2012.

  1. ersin69

    ersin69 Neuling

    Registriert seit:
    10. Januar 2009
    Beiträge:
    4
    Anzeige
    KARL STORZ Endoskope - Kameras, Lichtquellen und Dokumentation

    [​IMG][​IMG]

    LIVE zu sehen auf 28°E

    Eurobird 1 (28.5°E)

    Frequency: 12713 - Pol: V - SR: 21200 - FEC: -

    Category: Newsfeed

    Transmitted in: MPEG-2 4:2:0 (PAL)

    Comments: LIVE 3D OPERATION CHIR.SPANDAU HDTV/3D L/R h.264 1080i
     
  2. moecki

    moecki Senior Member

    Registriert seit:
    9. Juli 2005
    Beiträge:
    342
    AW: "Karl Storz 3D"-TECHNIK LIVE 3D-L/R OPERATION CHIR.SPANDAU HDTV/3D

    Lecker! Live aus dem Bauchraum von Frau Meier! :eek:
     
  3. ZackMuc

    ZackMuc Senior Member

    Registriert seit:
    25. April 2001
    Beiträge:
    492
    Ort:
    München
    AW: "Karl Storz 3D"-TECHNIK LIVE 3D-L/R OPERATION CHIR.SPANDAU HDTV/3D

    MPEG-2 4:2:0 kann man mit Dreambox anschauen oder? ist das in 3D?
     
  4. moecki

    moecki Senior Member

    Registriert seit:
    9. Juli 2005
    Beiträge:
    342
    AW: "Karl Storz 3D"-TECHNIK LIVE 3D-L/R OPERATION CHIR.SPANDAU HDTV/3D

    Ging glaube ich nur bis 12:00!
     
  5. inuyasha

    inuyasha Gold Member

    Registriert seit:
    20. Dezember 2008
    Beiträge:
    1.298
    AW: "Karl Storz 3D"-TECHNIK LIVE 3D-L/R OPERATION CHIR.SPANDAU HDTV/3D


    Das war dieter Schumann!
     
  6. deepy

    deepy Platin Member

    Registriert seit:
    6. Mai 2001
    Beiträge:
    2.141
    Ort:
    Hessen/Odenwald
    Technisches Equipment:
    19,2 Skybox, FireTV 1Gen, Chromecast Audio
    AW: "Karl Storz 3D"-TECHNIK LIVE 3D-L/R OPERATION CHIR.SPANDAU HDTV/3D

    war? anscheinend is die op nich so erfolgreich gelaufen :p
     
  7. KAWUMMK

    KAWUMMK Junior Member

    Registriert seit:
    2. September 2012
    Beiträge:
    128
    AW: "Karl Storz 3D"-TECHNIK LIVE 3D-L/R OPERATION CHIR.SPANDAU HDTV/3D

    ja ,muss weiterbehandelt werden
    auf
    11°W 11606H14400 1080i HDTV 3D Live-feed now!

    H:\01.12.2012_10.18_Ita 570 2\0003.ts
    General #2
    ID : 2 (0x2)
    Complete name : H:\01.12.2012_10.18_Ita 570 2\0003.ts
    Format : MPEG-TS
    File size : 248 MiB
    Duration : 1mn 7s
    Overall bit rate mode : Variable
    Overall bit rate : 30.7 Mbps
    Video #33
    ID : 33 (0x21)
    Menu ID : 1 (0x1)
    Format : MPEG Video
    Format version : Version 2
    Format profile : Main@High
    Format settings, BVOP : Yes
    Format settings, Matrix : Default
    Format settings, GOP : M=3, N=12
    Codec ID : 2
    Duration : 1mn 7s
    Bit rate mode : Variable
    Bit rate : 28.9 Mbps
    Maximum bit rate : 30.4 Mbps
    Width : 1 920 pixels
    Height : 1 080 pixels
    Display aspect ratio : 16:9
    Active Format Description : Full frame 16:9 image
    Frame rate : 25.000 fps
    Color space : YUV
    Chroma subsampling : 4:2:0
    Bit depth : 8 bits
    Scan type : Interlaced
    Scan order : Top Field First
    Compression mode : Lossy
    Bits/(Pixel*Frame) : 0.558
    Stream size : 233 MiB (94%)
    Audio #34
    ID : 34 (0x22)
    Menu ID : 1 (0x1)
    Format : MPEG Audio
    Format version : Version 1
    Format profile : Layer 2
    Mode : Dual mono
    Codec ID : 3
    Duration : 1mn 7s
    Bit rate mode : Constant
    Bit rate : 256 Kbps
    Channel(s) : 2 channels
    Sampling rate : 48.0 KHz
    Compression mode : Lossy
    Delay relative to video : -258ms
    Stream size : 2.06 MiB (1%)
    Language : Italian

    [​IMG][​IMG][​IMG][​IMG]
     
  8. KAWUMMK

    KAWUMMK Junior Member

    Registriert seit:
    2. September 2012
    Beiträge:
    128
    AW: "Karl Storz 3D"-TECHNIK LIVE 3D-L/R OPERATION CHIR.SPANDAU HDTV/3D

    jetzt live auf sat
    3D-OP mit handelsüblicher 3D-Shutter-Brille zu sehen
    [​IMG]
     
  9. Scholli

    Scholli Wasserfall

    Registriert seit:
    25. Oktober 2001
    Beiträge:
    7.507
    Ort:
    06268 Vitzenburg
    Technisches Equipment:
    Vu+Solo 4k
    AW: "Karl Storz 3D"-TECHNIK LIVE 3D-L/R OPERATION CHIR.SPANDAU HDTV/3D

    Auf welchem Sat ? Auf welcher Frequenz ?
     
  10. KAWUMMK

    KAWUMMK Junior Member

    Registriert seit:
    2. September 2012
    Beiträge:
    128
    AW: "Karl Storz 3D"-TECHNIK LIVE 3D-L/R OPERATION CHIR.SPANDAU HDTV/3D

    11°W 11651H14400 1080i 4:2:0
    [​IMG][​IMG]
     

Diese Seite empfehlen