1. Cookies optimieren die Bereitstellung unserer Dienste. Mit der Nutzung unserer Dienste erklärst Du dich damit einverstanden, dass wir Cookies verwenden. Weitere Informationen
    Information ausblenden
  2. Willkommen im Forum von DIGITAL FERNSEHEN - dem führenden Portal für digitales Fernsehen, Medien und Entertainment. Wenn du hier neu bist, schau dich ruhig etwas um und melde dich an, um am Forengeschehen teilnehmen zu können.
    Information ausblenden

UHD auf Eutelsat 7A/7B @ 7° East

Dieses Thema im Forum "HDTV - Die Zeitschrift" wurde erstellt von KAWUMMK, 30. Dezember 2015.

  1. KAWUMMK

    KAWUMMK Senior Member

    Registriert seit:
    2. September 2012
    Beiträge:
    202
    Zustimmungen:
    37
    Punkte für Erfolge:
    38
    Anzeige
    All Star Game – 30.06.2015 – 10:45

    Ouverture de la billetterie du All Star Game 2015
    Le All Star Game de la Ligue Nationale de Basket revient dans un Paris Bercy totalement rénové le mercredi 30 décembre 2015. Reservez vos places dès aujourd’hui !

    Variables:
    Eutelsat 7A-7B 7.0E 0070 11129 Vertical 9874
    8PSK 3/4 DVB-S2 ON 0.20 Normal CCM 22,009 11,848 9,5 -36 MIS: 0, BER: 0,0000000, Time to lock: - ms 30.12.2015
    [​IMG]
     
  2. Scholli

    Scholli Wasserfall

    Registriert seit:
    25. Oktober 2001
    Beiträge:
    7.868
    Zustimmungen:
    185
    Punkte für Erfolge:
    78
    Technisches Equipment:
    Vu+Solo 4k
    Auf 7°Ost wurde "Digiturk UHD" auf 10762H 30000 5/6 DVB/S2 QPSK aufgeschaltet. Vor etwa einem Jahr gab es genau mit diesen Parametern auf diesem Kanal schon mal mit der Kennung "Digiturk 4K Test" die ersten Veruche in dieser hohen Auflösung. Eigentlich Zeit genug, um aus einem Testkanal ein reguläres Programm zu machen. Im Moment sieht es sogar danach aus.
     
    Klaus K. gefällt das.
  3. Scholli

    Scholli Wasserfall

    Registriert seit:
    25. Oktober 2001
    Beiträge:
    7.868
    Zustimmungen:
    185
    Punkte für Erfolge:
    78
    Technisches Equipment:
    Vu+Solo 4k
    Nach meinen bisherigen Recherchen handelt es sich um mehrere vollständige Dokus über die Türkei in einer 3-4 stündigen Schleife.
    Leider also auch noch kein regelrechtes Programm:
     
  4. Scholli

    Scholli Wasserfall

    Registriert seit:
    25. Oktober 2001
    Beiträge:
    7.868
    Zustimmungen:
    185
    Punkte für Erfolge:
    78
    Technisches Equipment:
    Vu+Solo 4k
    In den letzten Wochen gab es einige Unterbrechungen auf diesem Kanal. Jetzt sendet er mit neuer Kennung "Test_655" wieder stabil.
     
    Klaus K. gefällt das.
  5. Scholli

    Scholli Wasserfall

    Registriert seit:
    25. Oktober 2001
    Beiträge:
    7.868
    Zustimmungen:
    185
    Punkte für Erfolge:
    78
    Technisches Equipment:
    Vu+Solo 4k
    In den letzten Wochen wurde dieser Kasnal immer mal wieder in Irdeto verschlüsselt. Jetzt ist er wieder offen und hat einen ordentlichen EPG bekommen.
     
  6. Klaus K.

    Klaus K. Board Ikone

    Registriert seit:
    16. Februar 2004
    Beiträge:
    4.763
    Zustimmungen:
    178
    Punkte für Erfolge:
    73
    Technisches Equipment:
    LG-UHD-OLED, Sky-UHD-Receiver
    Danke Scholli, aber den bekomme ich mit meiner 70er-Schüssel nicht rein. Dafür klappt es jetzt endlich mit dem neuen von Randfichte auf dem 42-Grad-Westbeam gemeldeten TRT4K...
     
  7. Randfichte

    Randfichte Talk-König

    Registriert seit:
    1. Juli 2002
    Beiträge:
    5.686
    Zustimmungen:
    336
    Punkte für Erfolge:
    93
    Ja, DigiTurk UHD ist wirklich etwas schwach auf der Brust. Aber hier ist Empfang mit 110 cm möglich.

    @Scholli
    Du hast wohl versucht mich anzurufen. Mein Festnetz ist noch gestört nach Blitzeinschlag. Aber sonst alles gut ...
     
  8. KAWUMMK

    KAWUMMK Senior Member

    Registriert seit:
    2. September 2012
    Beiträge:
    202
    Zustimmungen:
    37
    Punkte für Erfolge:
    38
    Eutelsat 7A (7.0°E)
    [​IMG]
    Frequency: 11084 - Pol: V - SR: 14400 - FEC: NC
    [​IMG]
    Category: Sport - Courses auto/moto
    [​IMG]
    Transmitted in: MPEG-4
    [​IMG]
    Comments: About WRC Wales Rally(s2,ultrahdtv)
    [​IMG]
    Variables:


    Eutelsat 7A-7B 7.0E 0070 11084 Vertical 14400 8PSK 3/4 DVB-S2 ON 0.25 Normal CCM 32,098 18,000 10,0 -38 MIS: 0, BER: 0,0011123, Time to lock: - ms 30.10.2016 10:12:51
    General
    ID : 1 (0x1)
    Complete name : C:\!rec\UHD Coder 1 UHD Coder 1 2016 10 30-102445.ts
    Format : MPEG-TS
    File size : 129 MiB
    Duration : 37s 830ms
    Start time : UTC 2016-10-30 07:15:02
    End time : UTC 1859-0-1-19 00:00:00
    Overall bit rate mode : Variable
    Overall bit rate : 28.2 Mbps
    Network name : Path B

    Audio #1
    ID : 4112 (0x1010)
    Menu ID : 1 (0x1)
    Format : AAC
    Format/Info : Advanced Audio Codec
    Format version : Version 4
    Format profile : LC
    Muxing mode : ADTS
    Codec ID : 15
    Duration : 37s 888ms
    Bit rate mode : Variable
    Bit rate : 126 Kbps
    Channel count : 2 channels
    Channel positions : Front: L R
    Sampling rate : 48.0 KHz
    Compression mode : Lossy
    Stream size : 582 KiB (0%)
    Language : English

    Audio #2
    ID : 4128 (0x1020)
    Menu ID : 1 (0x1)
    Format : AAC
    Format/Info : Advanced Audio Codec
    Format version : Version 4
    Format profile : LC
    Muxing mode : ADTS
    Codec ID : 15
    Duration : 37s 824ms
    Bit rate mode : Variable
    Bit rate : 126 Kbps
    Channel count : 2 channels
    Channel positions : Front: L R
    Sampling rate : 48.0 KHz
    Compression mode : Lossy
    Stream size : 582 KiB (0%)
    Language : English

    Audio #3
    ID : 4144 (0x1030)
    Menu ID : 1 (0x1)
    Format : AAC
    Format/Info : Advanced Audio Codec
    Format version : Version 4
    Format profile : LC
    Muxing mode : ADTS
    Codec ID : 15
    Duration : 37s 845ms
    Bit rate mode : Variable
    Bit rate : 126 Kbps
    Channel count : 2 channels
    Channel positions : Front: L R
    Sampling rate : 48.0 KHz
    Compression mode : Lossy
    Stream size : 580 KiB (0%)
    Language : English

    Audio #4
    ID : 4160 (0x1040)
    Menu ID : 1 (0x1)
    Format : AAC
    Format/Info : Advanced Audio Codec
    Format version : Version 4
    Format profile : LC
    Muxing mode : ADTS
    Codec ID : 15
    Duration : 37s 824ms
    Bit rate mode : Constant
    Bit rate : 126 Kbps
    Channel count : 2 channels
    Channel positions : Front: L R
    Sampling rate : 48.0 KHz
    Compression mode : Lossy
    Stream size : 580 KiB (0%)
    Language : English

    Menu
    ID : 200 (0xC8)
    Menu ID : 1 (0x1)
    List : 512 (0x200) () / 4112 (0x1010) (AAC, English) / 4128 (0x1020) (AAC, English) / 4144 (0x1030) (AAC, English) / 4160 (0x1040) (AAC, English)
    Language : / English / English / English / English
    Service name : UHD Coder 1
    Service provider : Path B
    Service type : digital television
    Maximum bit rate : 0
    [​IMG]
    General
    ID : 1 (0x1)
    Complete name : C:\!rec\UHD Coder 1 UHD Coder 1 2016 10 30-104059.ts
    Format : MPEG-TS
    File size : 230 MiB
    Duration : 1mn 7s
    Start time : UTC 2016-10-30 07:15:02
    End time : UTC 1859-0-1-19 00:00:00
    Overall bit rate mode : Variable
    Overall bit rate : 28.5 Mbps
    Network name : Path B

    Audio #1
    ID : 4112 (0x1010)
    Menu ID : 1 (0x1)
    Format : AAC
    Format/Info : Advanced Audio Codec
    Format version : Version 4
    Format profile : LC
    Muxing mode : ADTS
    Codec ID : 15
    Duration : 1mn 7s
    Bit rate mode : Variable
    Bit rate : 126 Kbps
    Channel count : 2 channels
    Channel positions : Front: L R
    Sampling rate : 48.0 KHz
    Compression mode : Lossy
    Stream size : 1.01 MiB (0%)
    Language : English

    Audio #2
    ID : 4128 (0x1020)
    Menu ID : 1 (0x1)
    Format : AAC
    Format/Info : Advanced Audio Codec
    Format version : Version 4
    Format profile : LC
    Muxing mode : ADTS
    Codec ID : 15
    Duration : 1mn 7s
    Bit rate mode : Variable
    Bit rate : 125 Kbps
    Channel count : 2 channels
    Channel positions : Front: L R
    Sampling rate : 48.0 KHz
    Compression mode : Lossy
    Stream size : 1.00 MiB (0%)
    Language : English

    Audio #3
    ID : 4144 (0x1030)
    Menu ID : 1 (0x1)
    Format : AAC
    Format/Info : Advanced Audio Codec
    Format version : Version 4
    Format profile : LC
    Muxing mode : ADTS
    Codec ID : 15
    Duration : 1mn 7s
    Bit rate mode : Variable
    Bit rate : 126 Kbps
    Channel count : 2 channels
    Channel positions : Front: L R
    Sampling rate : 48.0 KHz
    Compression mode : Lossy
    Stream size : 1.01 MiB (0%)
    Language : English

    Audio #4
    ID : 4160 (0x1040)
    Menu ID : 1 (0x1)
    Format : AAC
    Format/Info : Advanced Audio Codec
    Format version : Version 4
    Format profile : LC
    Muxing mode : ADTS
    Codec ID : 15
    Duration : 1mn 7s
    Bit rate mode : Constant
    Bit rate : 126 Kbps
    Channel count : 2 channels
    Channel positions : Front: L R
    Sampling rate : 48.0 KHz
    Compression mode : Lossy
    Stream size : 1.01 MiB (0%)
    Language : English

    Menu
    ID : 200 (0xC8)
    Menu ID : 1 (0x1)
    List : 512 (0x200) () / 4112 (0x1010) (AAC, English) / 4128 (0x1020) (AAC, English) / 4144 (0x1030) (AAC, English) / 4160 (0x1040) (AAC, English)
    Language : / English / English / English / English
    Service name : UHD Coder 1
    Service provider : Path B
    Service type : digital television
    Maximum bit rate : 0
     
  9. Scholli

    Scholli Wasserfall

    Registriert seit:
    25. Oktober 2001
    Beiträge:
    7.868
    Zustimmungen:
    185
    Punkte für Erfolge:
    78
    Technisches Equipment:
    Vu+Solo 4k
    Danke ! Ich habe diesen seltenen Fund auch in meine Programmliste einladen. Mein UHD-TV zeigt aber Viaccess-Verschlüsselung an und das Bild bleibt schwarz. Ist das richtig ? Kann das in deinen umfangreichen Angaben nicht sehen.
     
  10. Chillowdo

    Chillowdo Senior Member

    Registriert seit:
    29. November 2015
    Beiträge:
    324
    Zustimmungen:
    133
    Punkte für Erfolge:
    53
    Das war wohl ein Feed und der ist inzwischen wieder weg. Anstatt die ganze Seite mit wenig nützlicher Information zu füllen, solle der TE lieber darauf hinweisen ;)
     
    Hate gefällt das.

Diese Seite empfehlen