1. Cookies optimieren die Bereitstellung unserer Dienste. Mit der Nutzung unserer Dienste erklärst Du dich damit einverstanden, dass wir Cookies verwenden. Weitere Informationen
    Information ausblenden
  2. Willkommen im Forum von DIGITAL FERNSEHEN - dem führenden Portal für digitales Fernsehen, Medien und Entertainment. Wenn du hier neu bist, schau dich ruhig etwas um und melde dich an, um am Forengeschehen teilnehmen zu können.
    Information ausblenden

CL von ZDF

Dieses Thema im Forum "HDTV - Die Zeitschrift" wurde erstellt von KAWUMMK, 15. September 2016.

  1. KAWUMMK

    KAWUMMK Senior Member

    Registriert seit:
    2. September 2012
    Beiträge:
    202
    Zustimmungen:
    37
    Punkte für Erfolge:
    38
    Anzeige
    war so frei und habs mal so abgespeichert das es nicht mit VLC-player abgespielt werden kann
    empfehle Global Potplayer
    Video: MPEG4 Video (H264) 1920x1080 25fps [V: h264 high 4:2:2 L4.1, yuv422p, 1920x1080]
    Audio: MPEG Audio 48000Hz stereo 384kbps [A: one [one] (mp2, 48000 Hz, stereo, 384 kb/s)]
    Audio: MPEG Audio 48000Hz stereo 384kbps [A: one [one] (mp2, 48000 Hz, stereo, 384 kb/s)]
    Audio: MPEG Audio 48000Hz stereo 64kbps [A: one [one] (mp2, 48000 Hz, stereo, 64 kb/s)]

    [Video-Informationen]
    Video-Codec: H264 - Eingebauter FFmpeg-Decoder(h264, Thread Frame)
    Eingabetyp: H264(24 bits)
    Eingabegröße: 1920 x 1080(1.79:1)
    Ausgabetyp: NV12(12 bits)
    Ausgabegröße: 1920 x 1080(1.79:1)
    Framerate:25

    [Audio-Informationen]
    Audio-Codec: MPEG Audio(0x50) - Eingebauter FFmpeg-Decoder(mp2float)
    Samplerate: 48000 ->48000 Samples/Sek
    Bitrate: 0 ->16 Bit/Sample
    Kanäle: 2 ->2 Kanäle
    Bitrate: 384 kbps

    ZDF DSNG ZUG-A noevent 20160914_230812 #1.ts1.78 GB
    MEGA

    ZDF DSNG ZUG-A noevent 20160914_231727 #1.ts100.5 MB
    MEGA

    [​IMG]
     
  2. Chillowdo

    Chillowdo Senior Member

    Registriert seit:
    29. November 2015
    Beiträge:
    324
    Zustimmungen:
    133
    Punkte für Erfolge:
    53
    ..naja, 1080i50/4:2:2 AVC Feeds sind nichts besonderes mehr. Ich konnte gestern zwischen 10 CL-Feeds in HD_4:2:2 auf 7E umschalten. Der ZDF Feed war natürlich auch dabei. Interessanter sind UHD-Feeds, die allerdings noch spärlich sind. Am 10.9. hatte ich einen 4k-Feed von Barcelona - Alaves (1:2 ;) ).
    Format : MPEG-TS
    File size : 15.0 GiB
    Duration : 1 h 25 min
    Overall bit rate mode : Variable
    Overall bit rate : 25.2 Mb/s

    Video
    ID : 651 (0x28B)
    Menu ID : 608 (0x260)
    Format : HEVC
    Format/Info : High Efficiency Video Coding
    Format profile : Main@L5.1@Main
    Codec ID : 36
    Duration : 1 h 25 min
    Bit rate : 22.2 Mb/s
    Width : 3 840 pixels
    Height : 2 160 pixels
    Display aspect ratio : 16:9
    Frame rate : 50.000 FPS
    Color space : YUV
    Chroma subsampling : 4:2:0
    Bit depth : 8 bits
    Bits/(Pixel*Frame) : 0.053
    Stream size : 13.2 GiB (88%)
    Color range : Limited
    Color primaries : BT.709
    Transfer characteristics : BT.709
    Matrix coefficients : BT.709

    Audio #1
    ID : 547 (0x223)
    Menu ID : 608 (0x260)
    Format : AC-3
    Format/Info : Audio Coding 3
    Mode extension : CM (complete main)
    Format settings, Endianness : Big
    Codec ID : 6
    Duration : 1 h 25 min
    Bit rate mode : Constant
    Bit rate : 384 kb/s
    Channel(s) : 6 channels
    Channel positions : Front: L C R, Side: L R, LFE
    Sampling rate : 48.0 kHz
    Frame rate : 31.250 FPS (1536 spf)
    Compression mode : Lossy
    Delay relative to video : -623 ms
    Stream size : 234 MiB (2%)

    Audio #2
    ID : 548 (0x224)
    Menu ID : 608 (0x260)
    Format : MPEG Audio
    Format version : Version 1
    Format profile : Layer 2
    Codec ID : 3
    Duration : 1 h 25 min
    Bit rate mode : Constant
    Bit rate : 256 kb/s
    Channel(s) : 2 channels
    Sampling rate : 48.0 kHz
    Compression mode : Lossy
    Delay relative to video : -640 ms
    Stream size : 156 MiB (1%)

    Audio #3
    ID : 652 (0x28C)
    Menu ID : 608 (0x260)
    Format : MPEG Audio
    Format version : Version 1
    Format profile : Layer 2
    Codec ID : 3
    Duration : 1 h 25 min
    Bit rate mode : Constant
    Bit rate : 256 kb/s
    Channel(s) : 2 channels
    Sampling rate : 48.0 kHz
    Compression mode : Lossy
    Delay relative to video : -640 ms
    Stream size : 156 MiB (1%)

    Audio #4
    ID : 653 (0x28D)
    Menu ID : 608 (0x260)
    Format : AC-3
    Format/Info : Audio Coding 3
    Mode extension : CM (complete main)
    Format settings, Endianness : Big
    Codec ID : 6
    Duration : 1 h 25 min
    Bit rate mode : Constant
    Bit rate : 256 kb/s
    Channel(s) : 2 channels
    Channel positions : Front: L R
    Sampling rate : 48.0 kHz
    Frame rate : 31.250 FPS (1536 spf)
    Compression mode : Lossy
    Delay relative to video : -576 ms
    Stream size : 156 MiB (1%)

    Audio #5
    ID : 654 (0x28E)
    Menu ID : 608 (0x260)
    Format : AC-3
    Format/Info : Audio Coding 3
    Mode extension : CM (complete main)
    Format settings, Endianness : Big
    Codec ID : 6
    Duration : 2 s 784 ms
    Bit rate mode : Constant
    Bit rate : 384 kb/s
    Channel(s) : 6 channels
    Channel positions : Front: L C R, Side: L R, LFE
    Sampling rate : 48.0 kHz
    Frame rate : 31.250 FPS (1536 spf)
    Compression mode : Lossy
    Stream size : 131 KiB (0%)

    Audio #6
    ID : 655 (0x28F)
    Menu ID : 608 (0x260)
    Format : MPEG Audio
    Format version : Version 1
    Format profile : Layer 2
    Codec ID : 3
    Duration : 2 s 952 ms
    Bit rate mode : Constant
    Bit rate : 256 kb/s
    Channel(s) : 2 channels
    Sampling rate : 48.0 kHz
    Compression mode : Lossy
    Stream size : 92.3 KiB (0%)
     

Diese Seite empfehlen